Witamy Guest (Zaloguj) Strona Główna Kontakt Aktywacja/Wsparcie Regulamin
User: Hasło:
Stwórz konto Odzyskiwanie hasła



Kategorie
Filmy :
 » DVD-R1482  
 » VCD/SVCD5  
 » BluRay/x2648169  
 » DivX/XviD70587  
 » Filmy ENG571  
 » RMVB1618  
 » HD0  
 » 3D16  
Seriale :
 » Seriale Polskie3647  
 » Seriale Zagraniczne22697  
Dla Dzieci :
 » Bajki Pl/Eng559  
Anime :
 » Anime Pl16  
 » Anime104  
Muzyka :
 » Muzyka Polska/Zagraniczna11554  
 » Soundtracki46  
 » Teledyski/Koncerty728  
Gry :
 » Gry PC13092  
 » Gry PS2/PS3/PSP625  
 » Gry Xbox763  
 » Gry - Inne Konsole40  
GSM/PDA :
 » Tapety GSM/PDA6  
 » Programy GSM/PDA298  
 » Filmy GSM/PDA2  
 » Dzwonki GSM/PDA17  
 » Gry GSM/PDA76  
Ksiazki/Czasopisma :
 » E-Booki10089  
 » Audio-Booki1091  
 » Czasopisma642  
 » Komiksy827  
Programy :
 » Windows4717  
 » Linux109  
 » Macintosh19  
Inne :
 » Tapety272  
 » Śmieszne21  
 » Sport644  
 » Pozostale108  
Erotyka :
 » Czasopisma28  
 » Zdjęcia 1044  
 » Filmy109031  
 » Gry 16  
 » Hentai+181  

Kosmiczny mecz Space Jam *1996* [1080p] [BDRip] [x264] [AC3] [Dubbing PL]

Kategoria: Bajki Pl/Eng
Wystawil: 
Data: 07/01/2018
Rozmiar: 2.07 GB
Seedow: 11
Leecherow: 4

Uaktualnij


Pobierz Torrent

Tytuł: Space Jam
Polski tytuł: Kosmiczny Mecz
Produkcja: USA
Gatunek: Animacja, Komedia, Sci-Fi
Czas trwania: 88 minut
Premiera: 30 stycznia 1997 (Polska), 10 listopada 1996 (świat)
Reżyseria: Joe Pytka
Scenariusz: Steve Rudnick, Herschel Weingrod

Bohaterowie kreskówek Looney Tunes z Królikiem Bugsem na czele porywają Michaela Jordana, by ten pomógł im wygrać ważny mecz koszykówki.

Format : Matroska
File size : 2.07 GiB
Duration : 1h 27mn
Overall bit rate : 3 386 Kbps
Encoded date : UTC 2017-06-05 10:18:25
Writing application : mkvmerge v7.5.0 ('Glass Culture') 64bit built on Jan 4 2015 16:48:44
Writing library : libebml v1.3.1 + libmatroska v1.4.2

Video
ID : 1
Format : AVC
Format/Info : Advanced Video Codec
Format profile : <a href="/cdn-cgi/l/email-protection" class="__cf_email__" data-cfemail="f0b8999798b0bcc4dec1">[email&#160;protected]</a>
Format settings, CABAC : Yes
Format settings, ReFrames : 3 frames
Codec ID : V_MPEG4/ISO/AVC
Duration : 1h 27mn
Bit rate : 2 935 Kbps
Width : 1 908 pixels
Height : 1 080 pixels
Display aspect ratio : 16:9
Frame rate : 23.810 fps
Original frame rate : 23.976 fps
Color space : YUV
Chroma subsampling : 4:2:0
Bit depth : 8 bits
Scan type : Progressive
Bits/(Pixel*Frame) : 0.060
Stream size : 1.79 GiB (87%)
Language : Polish
Color primaries : BT.709-5, BT.1361, IEC 61966-2-4, SMPTE RP177
Transfer characteristics : BT.709-5, BT.1361
Matrix coefficients : BT.709-5, BT.1361, IEC 61966-2-4 709, SMPTE RP177

Audio
ID : 2
Format : AC-3
Format/Info : Audio Coding 3
Mode extension : CM (complete main)
Codec ID : A_AC3
Duration : 1h 27mn
Bit rate mode : Constant
Bit rate : 384 Kbps
Channel(s) : 6 channels
Channel positions : Front: L C R, Side: L R, LFE
Sampling rate : 48.0 KHz
Bit depth : 16 bits
Compression mode : Lossy
Delay relative to video : 28ms
Stream size : 240 MiB (11%)
Language : Polish

Szczegoly torrenta
Info Hash
f1cef7be4fd260ccb8cd6b3f0ec435373b63d64f
Tracker
http://agusiq-thetruamericanparty.com:6969/announce [EXTERNAL]
Uaktualnienie
18/01/2018 21:50:03 (Jezeli nie widac seeda kliknij na [uaktualnij] by odswiezyc statystyki).
Pokaz/Ukryj Pliki:
1 file
Komentarze


Brak komentarzy...


Wstecz